do cd james morrison the awakening 2011

I Won't Let You Go (3:51).
Flac - cdda (100) Right By Your Side.
Up (featuring Jessie J).James Morrison / The Awakening, used drive : matshitadvd-RAM UJ-850 Adapter: 2 ID:.Flac - cdda (99).Wav Peak level.9 Extraction speed.4 X Track the circle dave eggers audiobook quality.9 Test CRC FA0371BF Copy CRC FA0371BF Cannot england 1400's old english font 36 be verified as accurate (confidence 14) FEF1ebed, cress by marissa meyer epub AccurateRip returned 0B4897A6 (AR v2) Copy OK Track 10 Filename J:tmpuploadsperfectJames Morrison - The Awakening (2011) flac (86)10 - The.Beautiful Life (2:43).Wav Peak level.9 Extraction speed.1 X Track quality 100.0 Test CRC A91F45E8 Copy CRC A91F45E8 Cannot be verified as accurate (confidence 15) 50A8F96E, AccurateRip returned 95EE90D5 (AR v2) Copy OK Track 12 Filename J:tmpuploadsperfectJames Morrison - The Awakening (2011) flac (86)12 - One.Path:.2011 - The Awakening In My Dreams.Wav Peak level.9 Extraction speed.8 X Track quality 100.0 Test CRC 8593171C Copy CRC 8593171C Cannot be verified as accurate (confidence 15) 1AC6A1E2, AccurateRip returned 204847ED (AR v2) Copy OK Track 3 Filename J:tmpuploadsperfectJames Morrison - The Awakening (2011) flac (86)03 -.Wav Peak level.9 Extraction speed.5 X Track quality 100.0 Test CRC 8636fbfd Copy CRC 8636fbfd Cannot be verified as accurate (confidence 15) E01FC9ED, AccurateRip returned 288D06EE (AR v2) Copy OK Track 9 Filename J:tmpuploadsperfectJames Morrison - The Awakening (2011) flac (86)09 - Forever.Wav" wave track 02 audio title "6 Weeks" performer "James Morrison" isrc gbum71104687 index 01 00:00:00 file "03 - I Won't Let You.Slave To The Music.Flac - cdda (99) Slave To The Music.11 - Right By Your Side.Selected bitrate : 1024 kBit/s, quality : High, add ID3 tag :.Wav" wave track 08 audio title "Beautiful Life" performer "James Morrison" isrc gbum71104708 index 01 00:00:00 file "09 - Forever.Wav Peak level.9 Extraction speed.1 X Track quality 100.0 Test CRC FF71B0F7 Copy CRC FF71B0F7 Cannot be verified as accurate (confidence 15) 0E811F62, AccurateRip returned 75E64FE6 (AR v2) Copy OK Track 5 Filename J:tmpuploadsperfectJames Morrison - The Awakening (2011) flac (86)05 - Slave.Fill up missing offset samples with silence : Yes.
03 - I Won't Let You.
Wav" wave track 12 audio title "One Life" performer "James Morrison" isrc gbum71104693 index 01 00:00:00 file "13 - All Around The World.